<?xml version="1.0" standalone="no"?>
<!DOCTYPE svg PUBLIC "-//W3C//DTD SVG 1.1//EN" "http://www.w3.org/Graphics/SVG/1.1/DTD/svg11.dtd">
<svg xmlns="http://www.w3.org/2000/svg">
<metadata>Generated by Fontastic.me</metadata>
<defs>
<font id="linea-basic-elaboration-10" horiz-adv-x="512">
<font-face font-family="linea-basic-elaboration-10" units-per-em="512" ascent="480" descent="-32"/>
<missing-glyph horiz-adv-x="512" />

<glyph unicode="&#97;" d="M256 117l120-120 0 515-240 0 0-515z m-104 379l208 0 0-461-104 104-104-104z m186-106l-98-99-50 51-12-13 56-57 12 0 104 105z"/>
<glyph unicode="&#98;" d="M184 344l144 0 0-16-144 0z m72-227l120-120 0 515-240 0 0-515z m-104 379l208 0 0-461-104 104-104-104z"/>
<glyph unicode="&#99;" d="M264 264l0 64 64 0 0 16-64 0 0 64-16 0 0-64-64 0 0-16 64 0 0-64z m-8-147l120-120 0 515-240 0 0-515z m-104 379l208 0 0-461-104 104-104-104z"/>
<glyph unicode="&#100;" d="M256 117l120-120 0 515-240 0 0-515z m-104 379l208 0 0-461-104 104-104-104z m154-222l12 12-51 50 51 50-12 12-50-51-50 51-12-12 51-50-51-50 12-12 50 51z"/>
<glyph unicode="&#101;" d="M480 192l-1 0-48 320-350 0-48-320-1 0 0-192 448 0z m-385 304l322 0 46-304-127 0 0-8c0-44-36-80-80-80-44 0-80 36-80 80l0 8-127 0z m369-480l-416 0 0 160 112 0c4-49 46-88 96-88 50 0 92 39 96 88l112 0z m-218 256l104 105-12 12-98-98-50 51-12-13 56-57z"/>
<glyph unicode="&#102;" d="M480 192l-1 0-48 320-350 0-48-320-1 0 0-192 448 0z m-385 304l322 0 46-304-127 0 0-8c0-44-36-80-80-80-44 0-80 36-80 80l0 8-127 0z m369-480l-416 0 0 160 112 0c4-49 46-88 96-88 50 0 92 39 96 88l112 0z m-202 224l64 65-12 12-50-50 0 141-16 0 0-141-50 51-12-13 64-65z"/>
<glyph unicode="&#103;" d="M480 192l-1 0-48 320-350 0-48-320-1 0 0-192 448 0z m-385 304l322 0 46-304-127 0 0-8c0-44-36-80-80-80-44 0-80 36-80 80l0 8-127 0z m369-480l-416 0 0 160 112 0c4-49 46-88 96-88 50 0 92 39 96 88l112 0z m-240 312l126 0-25 40 25 40-126 0 0 16-16 0 0-184 16 0z m98 64l-16-24 16-24-98 0 0 48z"/>
<glyph unicode="&#104;" d="M480 192l-1 0-48 320-350 0-48-320-1 0 0-192 448 0z m-385 304l322 0 46-304-127 0 0-8c0-44-36-80-80-80-44 0-80 36-80 80l0 8-127 0z m369-480l-416 0 0 160 112 0c4-49 46-88 96-88 50 0 92 39 96 88l112 0z m-280 312l144 0 0-16-144 0z"/>
<glyph unicode="&#105;" d="M480 192l-1 0-48 320-350 0-48-320-1 0 0-192 448 0z m-385 304l322 0 46-304-127 0 0-8c0-44-36-80-80-80-44 0-80 36-80 80l0 8-127 0z m369-480l-416 0 0 160 112 0c4-49 46-88 96-88 50 0 92 39 96 88l112 0z m-216 232l16 0 0 64 64 0 0 16-64 0 0 64-16 0 0-64-64 0 0-16 64 0z"/>
<glyph unicode="&#106;" d="M480 192l-1 0-48 320-350 0-48-320-1 0 0-192 448 0z m-385 304l322 0 46-304-127 0 0-8c0-44-36-80-80-80-44 0-80 36-80 80l0 8-127 0z m369-480l-416 0 0 160 112 0c4-49 46-88 96-88 50 0 92 39 96 88l112 0z m-208 224l16 0-14-19 13-10 25 32 0 10-25 32-13-10 14-19-16 0c-32 0-56 34-56 64l-16 0c0-38 31-80 72-80z m14 125l-14 19 16 0c32 0 56-34 56-64l16 0c0 38-31 80-72 80l-16 0 14 19-13 10-25-32 0-10 25-32z"/>
<glyph unicode="&#107;" d="M480 192l-1 0-48 320-350 0-48-320-1 0 0-192 448 0z m-385 304l322 0 46-304-127 0 0-8c0-44-36-80-80-80-44 0-80 36-80 80l0 8-127 0z m369-480l-416 0 0 160 112 0c4-49 46-88 96-88 50 0 92 39 96 88l112 0z m-258 242l50 51 50-51 12 12-51 50 51 50-12 12-50-51-50 51-12-12 51-50-51-50z"/>
<glyph unicode="&#108;" d="M480 192l-1 0-48 320-350 0-48-320-1 0 0-192 448 0z m-385 304l322 0 46-304-127 0 0-8c0-44-36-80-80-80-44 0-80 36-80 80l0 8-127 0z m369-480l-416 0 0 160 112 0c4-49 46-88 96-88 50 0 92 39 96 88l112 0z m-232 272c13 0 24 4 33 11l57-57 12 12-57 57c7 9 11 20 11 33 0 31-25 56-56 56-31 0-56-25-56-56 0-31 25-56 56-56z m0 96c22 0 40-18 40-40 0-22-18-40-40-40-22 0-40 18-40 40 0 22 18 40 40 40z"/>
<glyph unicode="&#109;" d="M480 192l-1 0-48 320-350 0-48-320-1 0 0-192 448 0z m-385 304l322 0 46-304-127 0 0-8c0-44-36-80-80-80-44 0-80 36-80 80l0 8-127 0z m369-480l-416 0 0 160 112 0c4-49 46-88 96-88 50 0 92 39 96 88l112 0z m-265 250c-1-3 1-6 3-8 3-2 7-3 9-1l45 29 43-29c1-1 3-1 5-1 1 0 3 0 4 2 3 1 4 5 3 8l-14 51 43 28c3 2 5 6 4 9-1 4-4 6-8 6l-50 0-23 59c-1 3-4 5-7 5-3 0-6-2-8-5l-20-59-52 0c-4 0-7-2-8-6-1-3 1-7 4-9l43-28z m3 78l32 0c3 0 6 2 7 5l15 43 17-43c1-3 4-5 7-5l30 0-26-17c-3-2-5-6-4-9l10-35-30 20c-2 1-6 1-8 0l-31-20 11 35c1 3-1 7-4 9z"/>
<glyph unicode="&#110;" d="M480 192l-1 0-48 320-350 0-48-320-1 0 0-192 448 0z m-385 304l322 0 46-304-127 0 0-8c0-44-36-80-80-80-44 0-80 36-80 80l0 8-127 0z m369-480l-416 0 0 160 112 0c4-49 46-88 96-88 50 0 92 39 96 88l112 0z m-216 365l0-141 16 0 0 141 50-51 12 13-64 65-12 0-64-65 12-12z"/>
<glyph unicode="&#111;" d="M0 48l512 0 0 416-512 0z m16 16l0 320 480 0 0-320z m480 384l0-48-480 0 0 48z m-448-16l32 0 0-16-32 0z m64 0l32 0 0-16-32 0z m64 0l32 0 0-16-32 0z m64-245l-50 51-12-13 56-57 12 0 104 105-12 12z"/>
<glyph unicode="&#112;" d="M0 48l512 0 0 416-512 0z m16 16l0 320 480 0 0-320z m480 384l0-48-480 0 0 48z m-448-16l32 0 0-16-32 0z m64 0l32 0 0-16-32 0z m64 0l32 0 0-16-32 0z m88-269l0 141-16 0 0-141-50 51-12-13 64-65 12 0 64 65-12 12z"/>
<glyph unicode="&#113;" d="M0 48l512 0 0 416-512 0z m16 16l0 320 480 0 0-320z m480 384l0-48-480 0 0 48z m-448-16l32 0 0-16-32 0z m64 0l32 0 0-16-32 0z m64 0l32 0 0-16-32 0z m8-208l144 0 0-16-144 0z"/>
<glyph unicode="&#114;" d="M0 48l512 0 0 416-512 0z m16 16l0 320 480 0 0-320z m480 384l0-48-480 0 0 48z m-448-16l32 0 0-16-32 0z m64 0l32 0 0-16-32 0z m64 0l32 0 0-16-32 0z m88-144l-16 0 0-64-64 0 0-16 64 0 0-64 16 0 0 64 64 0 0 16-64 0z"/>
<glyph unicode="&#115;" d="M0 48l512 0 0 416-512 0z m16 16l0 320 480 0 0-320z m480 384l0-48-480 0 0 48z m-238-277l14-19-16 0c-32 0-56 34-56 64l-16 0c0-38 31-80 72-80l16 0-14-19 13-10 25 32 0 10-25 32z m14 125l-16 0 14 19-13 10-25-32 0-10 25-32 13 10-14 19 16 0c32 0 56-34 56-64l16 0c0 38-31 80-72 80z m-224 136l32 0 0-16-32 0z m64 0l32 0 0-16-32 0z m64 0l32 0 0-16-32 0z"/>
<glyph unicode="&#116;" d="M0 48l512 0 0 416-512 0z m16 16l0 320 480 0 0-320z m480 384l0-48-480 0 0 48z m-448-16l32 0 0-16-32 0z m64 0l32 0 0-16-32 0z m64 0l32 0 0-16-32 0z m130-154l-50-51-50 51-12-12 51-50-51-50 12-12 50 51 50-51 12 12-51 50 51 50z"/>
<glyph unicode="&#117;" d="M0 48l512 0 0 416-512 0z m16 16l0 320 480 0 0-320z m480 384l0-48-480 0 0 48z m-448-16l32 0 0-16-32 0z m64 0l32 0 0-16-32 0z m64 0l32 0 0-16-32 0z m112-184c0 31-25 56-56 56-31 0-56-25-56-56 0-31 25-56 56-56 13 0 24 4 33 11l57-57 12 12-57 57c7 9 11 20 11 33z m-96 0c0 22 18 40 40 40 22 0 40-18 40-40 0-22-18-40-40-40-22 0-40 18-40 40z"/>
<glyph unicode="&#118;" d="M0 48l512 0 0 416-512 0z m16 16l0 320 480 0 0-320z m480 384l0-48-480 0 0 48z m-160-200l-50 0-23 59c-1 3-4 5-7 5-3 0-6-2-8-5l-20-59-52 0c-4 0-7-2-8-6-1-3 1-7 4-9l43-28-16-51c-1-3 1-6 3-8 3-2 7-3 9-1l45 29 43-29c1-1 3-1 4-1 2 0 4 1 5 2 3 1 4 5 3 8l-14 51 43 28c3 2 5 6 4 9-1 4-4 6-8 6z m-52-33c-3-2-5-6-4-9l10-35-30 20c-2 1-6 1-8 0l-31-20 11 35c1 3-1 7-4 9l-26 17 32 0c3 0 6 2 7 5l15 43 17-43c1-3 4-5 7-5l30 0z m-236 217l32 0 0-16-32 0z m64 0l32 0 0-16-32 0z m64 0l32 0 0-16-32 0z"/>
<glyph unicode="&#119;" d="M0 48l512 0 0 416-512 0z m16 16l0 320 480 0 0-320z m480 384l0-48-480 0 0 48z m-448-16l32 0 0-16-32 0z m64 0l32 0 0-16-32 0z m64 0l32 0 0-16-32 0z m74-128l-64-65 12-12 50 50 0-141 16 0 0 141 50-51 12 13-64 65z"/>
<glyph unicode="&#120;" d="M240 179l-50 51-12-13 56-57 12 0 104 105-12 12z m184 293l-64 0 0-32-208 0 0 32-64 0 0-32-88 0 0-400 512 0 0 400-88 0z m-48-16l32 0 0-48-32 0z m-272 0l32 0 0-48-32 0z m-88-400l0 304 480 0 0-304z m480 368l0-48-480 0 0 48 72 0 0-32 64 0 0 32 208 0 0-32 64 0 0 32z"/>
<glyph unicode="&#121;" d="M424 472l-64 0 0-32-208 0 0 32-64 0 0-32-88 0 0-400 512 0 0 400-88 0z m-48-16l32 0 0-48-32 0z m-272 0l32 0 0-48-32 0z m-88-400l0 304 480 0 0-304z m480 368l0-48-480 0 0 48 72 0 0-32 64 0 0 32 208 0 0-32 64 0 0 32z m-176-209c-4 28-30 49-64 49-30 0-55-24-62-49-17-3-26-21-26-31 0-20 12-32 32-32l112 0c20 0 32 12 32 32 0 10-8 27-24 31z m-8-47l-112 0c-12 0-16 4-16 16 0 4 5 16 16 16l7 0 1 6c4 20 25 42 48 42 23 0 48-14 48-40l0-8 8 0c11 0 16-12 16-16 0-11-5-16-16-16z"/>
<glyph unicode="&#122;" d="M264 155l0 141-16 0 0-141-50 51-12-13 64-65 12 0 64 65-12 12z m160 317l-64 0 0-32-208 0 0 32-64 0 0-32-88 0 0-400 512 0 0 400-88 0z m-48-16l32 0 0-48-32 0z m-272 0l32 0 0-48-32 0z m-88-400l0 304 480 0 0-304z m480 368l0-48-480 0 0 48 72 0 0-32 64 0 0 32 208 0 0-32 64 0 0 32z"/>
<glyph unicode="&#65;" d="M424 472l-64 0 0-32-208 0 0 32-64 0 0-32-88 0 0-400 512 0 0 400-88 0z m-48-16l32 0 0-48-32 0z m-272 0l32 0 0-48-32 0z m-88-400l0 304 480 0 0-304z m480 368l0-48-480 0 0 48 72 0 0-32 64 0 0 32 208 0 0-32 64 0 0 32z"/>
<glyph unicode="&#66;" d="M424 472l-64 0 0-32-208 0 0 32-64 0 0-32-88 0 0-400 512 0 0 400-88 0z m-48-16l32 0 0-48-32 0z m-272 0l32 0 0-48-32 0z m-88-400l0 304 480 0 0-304z m480 368l0-48-480 0 0 48 72 0 0-32 64 0 0 32 208 0 0-32 64 0 0 32z m-272-144l0 16-16 0 0-184 16 0 0 88 126 0-25 40 25 40z m98-64l-98 0 0 48 98 0-16-24z"/>
<glyph unicode="&#67;" d="M424 472l-64 0 0-32-208 0 0 32-64 0 0-32-88 0 0-400 512 0 0 400-88 0z m-48-16l32 0 0-48-32 0z m-272 0l32 0 0-48-32 0z m-88-400l0 304 480 0 0-304z m480 368l0-48-480 0 0 48 72 0 0-32 64 0 0 32 208 0 0-32 64 0 0 32z m-200-144c-17 0-31-9-40-21-9 12-23 21-40 21-27 0-48-21-48-48 0-57 81-101 84-103l4-2 4 2c3 2 84 46 84 103 0 27-21 48-48 48z m-40-135c-15 9-72 45-72 87 0 19 13 32 32 32 18 0 32-14 32-32l16 0c0 18 14 32 32 32 19 0 32-13 32-32 0-42-57-78-72-87z"/>
<glyph unicode="&#68;" d="M184 216l144 0 0-16-144 0z m240 256l-64 0 0-32-208 0 0 32-64 0 0-32-88 0 0-400 512 0 0 400-88 0z m-48-16l32 0 0-48-32 0z m-272 0l32 0 0-48-32 0z m-88-400l0 304 480 0 0-304z m480 368l0-48-480 0 0 48 72 0 0-32 64 0 0 32 208 0 0-32 64 0 0 32z"/>
<glyph unicode="&#69;" d="M424 472l-64 0 0-32-208 0 0 32-64 0 0-32-88 0 0-400 512 0 0 400-88 0z m-48-16l32 0 0-48-32 0z m-272 0l32 0 0-48-32 0z m-88-400l0 304 480 0 0-304z m480 368l0-48-480 0 0 48 72 0 0-32 64 0 0 32 208 0 0-32 64 0 0 32z m-230-158l51-50-141 0 0-16 141 0-51-50 13-12 65 64 0 12-65 64z"/>
<glyph unicode="&#70;" d="M424 472l-64 0 0-32-208 0 0 32-64 0 0-32-88 0 0-400 512 0 0 400-88 0z m-48-16l32 0 0-48-32 0z m-272 0l32 0 0-48-32 0z m-88-400l0 304 480 0 0-304z m480 368l0-48-480 0 0 48 72 0 0-32 64 0 0 32 208 0 0-32 64 0 0 32z m-240-136c-21 0-41-8-57-23-15-16-23-36-23-57 0-21 8-41 23-57 16-15 36-23 57-23l0 0c44 0 80 36 80 80 0 21-8 41-23 57-16 15-36 23-57 23z m0-144c-17 0-33 7-45 19-12 12-19 28-19 45 0 14 5 28 13 39l90-89c-11-9-24-14-39-14z m50 25l-89 90c11 8 25 13 39 13 17 0 33-7 45-19 12-12 19-28 19-45 0-15-5-28-14-39z"/>
<glyph unicode="&#71;" d="M424 472l-64 0 0-32-208 0 0 32-64 0 0-32-88 0 0-400 512 0 0 400-88 0z m-48-16l32 0 0-48-32 0z m-272 0l32 0 0-48-32 0z m-88-400l0 304 480 0 0-304z m480 368l0-48-480 0 0 48 72 0 0-32 64 0 0 32 208 0 0-32 64 0 0 32z m-319-252l-11-54 54 11 127 127-43 43z m35-29l-26-5 5 26 89 89 21-21z m100 100l-21 21 13 13 21-21z"/>
<glyph unicode="&#72;" d="M424 472l-64 0 0-32-208 0 0 32-64 0 0-32-88 0 0-400 512 0 0 400-88 0z m-48-16l32 0 0-48-32 0z m-272 0l32 0 0-48-32 0z m-88-400l0 304 480 0 0-304z m480 368l0-48-480 0 0 48 72 0 0-32 64 0 0 32 208 0 0-32 64 0 0 32z m-232-144l-16 0 0-64-64 0 0-16 64 0 0-64 16 0 0 64 64 0 0 16-64 0z"/>
<glyph unicode="&#73;" d="M424 472l-64 0 0-32-208 0 0 32-64 0 0-32-88 0 0-400 512 0 0 400-88 0z m-48-16l32 0 0-48-32 0z m-272 0l32 0 0-48-32 0z m-88-400l0 304 480 0 0-304z m480 368l0-48-480 0 0 48 72 0 0-32 64 0 0 32 208 0 0-32 64 0 0 32z m-250-158l-13 12-65-64 0-12 65-64 12 12-50 50 141 0 0 16-141 0z"/>
<glyph unicode="&#74;" d="M258 163l14-19-16 0c-32 0-56 34-56 64l-16 0c0-38 31-80 72-80l16 0-14-19 13-10 25 32 0 10-25 32z m14 125l-16 0 14 19-13 10-25-32 0-10 25-32 13 10-14 19 16 0c32 0 56-34 56-64l16 0c0 38-31 80-72 80z m152 184l-64 0 0-32-208 0 0 32-64 0 0-32-88 0 0-400 512 0 0 400-88 0z m-48-16l32 0 0-48-32 0z m-272 0l32 0 0-48-32 0z m-88-400l0 304 480 0 0-304z m480 368l0-48-480 0 0 48 72 0 0-32 64 0 0 32 208 0 0-32 64 0 0 32z"/>
<glyph unicode="&#75;" d="M306 270l-50-51-50 51-12-12 51-50-51-50 12-12 50 51 50-51 12 12-51 50 51 50z m118 202l-64 0 0-32-208 0 0 32-64 0 0-32-88 0 0-400 512 0 0 400-88 0z m-48-16l32 0 0-48-32 0z m-272 0l32 0 0-48-32 0z m-88-400l0 304 480 0 0-304z m480 368l0-48-480 0 0 48 72 0 0-32 64 0 0 32 208 0 0-32 64 0 0 32z"/>
<glyph unicode="&#76;" d="M288 232c0 31-25 56-56 56-31 0-56-25-56-56 0-31 25-56 56-56 13 0 24 4 33 11l57-57 12 12-57 57c7 9 11 20 11 33z m-96 0c0 22 18 40 40 40 22 0 40-18 40-40 0-22-18-40-40-40-22 0-40 18-40 40z m232 240l-64 0 0-32-208 0 0 32-64 0 0-32-88 0 0-400 512 0 0 400-88 0z m-48-16l32 0 0-48-32 0z m-272 0l32 0 0-48-32 0z m-88-400l0 304 480 0 0-304z m480 368l0-48-480 0 0 48 72 0 0-32 64 0 0 32 208 0 0-32 64 0 0 32z"/>
<glyph unicode="&#77;" d="M424 472l-64 0 0-32-208 0 0 32-64 0 0-32-88 0 0-400 512 0 0 400-88 0z m-48-16l32 0 0-48-32 0z m-272 0l32 0 0-48-32 0z m-88-400l0 304 480 0 0-304z m480 368l0-48-480 0 0 48 72 0 0-32 64 0 0 32 208 0 0-32 64 0 0 32z m-160-192l-50 0-23 59c-1 3-4 5-7 5-3 0-6-2-8-5l-20-59-52 0c-4 0-7-2-8-6-1-3 1-7 4-9l43-28-16-51c-1-3 1-6 3-8 3-2 7-3 9-1l45 29 43-29c1-1 3-1 4-1 2 0 4 1 5 2 3 1 4 5 3 8l-14 51 43 28c3 2 5 6 4 9-1 4-4 6-8 6z m-52-33c-3-2-5-6-4-9l10-35-30 20c-2 1-6 1-8 0l-31-20 11 35c1 3-1 7-4 9l-26 17 32 0c3 0 6 2 7 5l15 43 17-43c1-3 4-5 7-5l30 0z"/>
<glyph unicode="&#78;" d="M250 296l-64-65 12-12 50 50 0-141 16 0 0 141 50-51 12 13-64 65z m174 176l-64 0 0-32-208 0 0 32-64 0 0-32-88 0 0-400 512 0 0 400-88 0z m-48-16l32 0 0-48-32 0z m-272 0l32 0 0-48-32 0z m-88-400l0 304 480 0 0-304z m480 368l0-48-480 0 0 48 72 0 0-32 64 0 0 32 208 0 0-32 64 0 0 32z"/>
<glyph unicode="&#79;" d="M240 195l-50 51-12-13 56-57 12 0 104 105-12 12z m208 53c-4 89-81 160-175 160-84 0-158-55-175-128l-7 0c-50 0-91-39-91-88 0-49 39-88 88-88l352 0c40 0 72 32 72 72 0 38-28 68-64 72z m-8-128l-352 0c-40 0-72 32-72 72 0 40 33 72 75 72l20 0 1 6c13 70 82 122 161 122 87 0 159-68 159-152l0-8 8 0c31 0 56-25 56-56 0-31-25-56-56-56z"/>
<glyph unicode="&#80;" d="M448 248c-4 89-81 160-175 160-84 0-158-55-175-128l-7 0c-50 0-91-39-91-88 0-49 39-88 88-88l352 0c40 0 72 32 72 72 0 38-28 68-64 72z m-8-128l-352 0c-40 0-72 32-72 72 0 40 33 72 75 72l20 0 1 6c13 70 82 122 161 122 87 0 159-68 159-152l0-8 8 0c31 0 56-25 56-56 0-31-25-56-56-56z m-176 51l0 141-16 0 0-141-50 51-12-13 64-65 12 0 64 65-12 12z"/>
<glyph unicode="&#81;" d="M448 248c-4 89-81 160-175 160-84 0-158-55-175-128l-7 0c-50 0-91-39-91-88 0-49 39-88 88-88l352 0c40 0 72 32 72 72 0 38-28 68-64 72z m-8-128l-352 0c-40 0-72 32-72 72 0 40 33 72 75 72l20 0 1 6c13 70 82 122 161 122 87 0 159-68 159-152l0-8 8 0c31 0 56-25 56-56 0-31-25-56-56-56z m-256 128l144 0 0-16-144 0z"/>
<glyph unicode="&#82;" d="M448 248c-4 89-81 160-175 160-84 0-158-55-175-128l-7 0c-50 0-91-39-91-88 0-49 39-88 88-88l352 0c40 0 72 32 72 72 0 38-28 68-64 72z m-8-128l-352 0c-40 0-72 32-72 72 0 40 33 72 75 72l20 0 1 6c13 70 82 122 161 122 87 0 159-68 159-152l0-8 8 0c31 0 56-25 56-56 0-31-25-56-56-56z m-184 200c-21 0-41-8-57-23-15-16-23-36-23-57 0-21 8-41 23-57 16-15 36-23 57-23l0 0c44 0 80 36 80 80 0 21-8 41-23 57-16 15-36 23-57 23z m0-144c-17 0-33 7-45 19-12 12-19 28-19 45 0 14 5 28 13 39l90-89c-11-9-24-14-39-14z m50 25l-89 90c11 8 25 13 39 13 17 0 33-7 45-19 12-12 19-28 19-45 0-15-5-28-14-39z"/>
<glyph unicode="&#83;" d="M448 248c-4 89-81 160-175 160-84 0-158-55-175-128l-7 0c-50 0-91-39-91-88 0-49 39-88 88-88l352 0c40 0 72 32 72 72 0 38-28 68-64 72z m-8-128l-352 0c-40 0-72 32-72 72 0 40 33 72 75 72l20 0 1 6c13 70 82 122 161 122 87 0 159-68 159-152l0-8 8 0c31 0 56-25 56-56 0-31-25-56-56-56z m-176 192l-16 0 0-64-64 0 0-16 64 0 0-64 16 0 0 64 64 0 0 16-64 0z"/>
<glyph unicode="&#84;" d="M448 248c-4 89-81 160-175 160-84 0-158-55-175-128l-7 0c-50 0-91-39-91-88 0-49 39-88 88-88l352 0c40 0 72 32 72 72 0 38-28 68-64 72z m-8-128l-352 0c-40 0-72 32-72 72 0 40 33 72 75 72l20 0 1 6c13 70 82 122 161 122 87 0 159-68 159-152l0-8 8 0c31 0 56-25 56-56 0-31-25-56-56-56z m-182 91l14-19-16 0c-32 0-56 34-56 64l-16 0c0-38 31-80 72-80l16 0-14-19 13-10 25 32 0 10-25 32z m14 125l-16 0 14 19-13 10-25-32 0-10 25-32 13 10-14 19 16 0c32 0 56-34 56-64l16 0c0 38-31 80-72 80z"/>
<glyph unicode="&#85;" d="M448 248c-4 89-81 160-175 160-84 0-158-55-175-128l-7 0c-50 0-91-39-91-88 0-49 39-88 88-88l352 0c40 0 72 32 72 72 0 38-28 68-64 72z m-8-128l-352 0c-40 0-72 32-72 72 0 40 33 72 75 72l20 0 1 6c13 70 82 122 161 122 87 0 159-68 159-152l0-8 8 0c31 0 56-25 56-56 0-31-25-56-56-56z m-134 182l-50-51-50 51-12-12 51-50-51-50 12-12 50 51 50-51 12 12-51 50 51 50z"/>
<glyph unicode="&#86;" d="M448 248c-4 89-81 160-175 160-84 0-158-55-175-128l-7 0c-50 0-91-39-91-88 0-49 39-88 88-88l352 0c40 0 72 32 72 72 0 38-28 68-64 72z m-8-128l-352 0c-40 0-72 32-72 72 0 40 33 72 75 72l20 0 1 6c13 70 82 122 161 122 87 0 159-68 159-152l0-8 8 0c31 0 56-25 56-56 0-31-25-56-56-56z m-152 144c0 31-25 56-56 56-31 0-56-25-56-56 0-31 25-56 56-56 13 0 24 4 33 11l57-57 12 12-57 57c7 9 11 20 11 33z m-96 0c0 22 18 40 40 40 22 0 40-18 40-40 0-22-18-40-40-40-22 0-40 18-40 40z"/>
<glyph unicode="&#87;" d="M448 248c-4 89-81 160-175 160-84 0-158-55-175-128l-7 0c-50 0-91-39-91-88 0-49 39-88 88-88l352 0c40 0 72 32 72 72 0 38-28 68-64 72z m-8-128l-352 0c-40 0-72 32-72 72 0 40 33 72 75 72l20 0 1 6c13 70 82 122 161 122 87 0 159-68 159-152l0-8 8 0c31 0 56-25 56-56 0-31-25-56-56-56z m-190 192l-64-65 12-12 50 50 0-141 16 0 0 141 50-51 12 13-64 65z"/>
<glyph unicode="&#88;" d="M448 512l-267 0-117-117 0-395 384 0z m-272-27l0-85-85 0z m256-469l-352 0 0 368 112 0 0 112 240 0z m-242 214l-12-13 56-57 12 0 104 105-12 12-98-98z"/>
<glyph unicode="&#89;" d="M64 0l384 0 0 512-267 0-117-117z m368 16l-352 0 0 368 112 0 0 112 240 0z m-341 384l85 85 0-85z m77-200c0-20 12-32 32-32l112 0c20 0 32 12 32 32 0 10-8 27-24 31-4 28-30 49-64 49-30 0-55-24-62-49-17-3-26-21-26-31z m39 16l1 6c4 20 25 42 48 42 23 0 48-14 48-40l0-8 8 0c11 0 16-12 16-16 0-11-5-16-16-16l-112 0c-12 0-16 4-16 16 0 4 5 16 16 16z"/>
<glyph unicode="&#90;" d="M448 512l-267 0-117-117 0-395 384 0z m-272-27l0-85-85 0z m256-469l-352 0 0 368 112 0 0 112 240 0z m-234 206l-12-13 64-65 12 0 64 65-12 12-50-50 0 141-16 0 0-141z"/>
<glyph unicode="&#48;" d="M64 0l384 0 0 512-267 0-117-117z m368 16l-352 0 0 368 112 0 0 112 240 0z m-341 384l85 85 0-85z m133-240l0 88 126 0-25 40 25 40-126 0 0 16-16 0 0-184z m98 152l-16-24 16-24-98 0 0 48z"/>
<glyph unicode="&#49;" d="M64 0l384 0 0 512-267 0-117-117z m368 16l-352 0 0 368 112 0 0 112 240 0z m-341 384l85 85 0-85z m133-176l-48 0 0-64-16 0 0-16 192 0 0 16-16 0 0 88-48 0 0-88-8 0 0 144-48 0 0-144-8 0z m80 8l16 0 0-72-16 0z m-56 56l16 0 0-128-16 0z m-56-128l0 48 16 0 0-48z"/>
<glyph unicode="&#50;" d="M64 0l384 0 0 512-267 0-117-117z m368 16l-352 0 0 368 112 0 0 112 240 0z m-341 384l85 85 0-85z m77-152c0-57 81-101 84-103l4-2 4 2c3 2 84 46 84 103 0 27-21 48-48 48-17 0-31-9-40-21-9 12-23 21-40 21-27 0-48-21-48-48z m80 0l16 0c0 18 14 32 32 32 19 0 32-13 32-32 0-42-57-78-72-87-15 9-72 45-72 87 0 19 13 32 32 32 18 0 32-14 32-32z"/>
<glyph unicode="&#51;" d="M448 512l-267 0-117-117 0-395 384 0z m-272-27l0-85-85 0z m256-469l-352 0 0 368 112 0 0 112 240 0z m-248 216l144 0 0-16-144 0z"/>
<glyph unicode="&#52;" d="M448 512l-267 0-117-117 0-395 384 0z m-272-27l0-85-85 0z m256-469l-352 0 0 368 112 0 0 112 240 0z m-115 216l-141 0 0-16 141 0-51-50 13-12 65 64 0 12-65 64-12-12z"/>
<glyph unicode="&#53;" d="M64 0l384 0 0 512-267 0-117-117z m368 16l-352 0 0 368 112 0 0 112 240 0z m-341 384l85 85 0-85z m85-176c0-21 8-41 23-57 16-15 36-23 57-23l0 0c44 0 80 36 80 80 0 21-8 41-23 57-16 15-36 23-57 23-21 0-41-8-57-23-15-16-23-36-23-57z m80-64c-17 0-33 7-45 19-12 12-19 28-19 45 0 14 5 28 13 39l90-89c-11-9-24-14-39-14z m0 128c17 0 33-7 45-19 12-12 19-28 19-45 0-15-5-28-14-39l-89 90c11 8 25 13 39 13z"/>
<glyph unicode="&#54;" d="M64 0l384 0 0 512-267 0-117-117z m368 16l-352 0 0 368 112 0 0 112 240 0z m-341 384l85 85 0-85z m109-200c-18 0-32-14-32-32 0-18 14-32 32-32 18 0 32 14 32 32l0 81 64 13 0-50c-5 2-10 4-16 4-18 0-32-14-32-32 0-18 14-32 32-32 18 0 32 14 32 32l0 130-96-19 0-99c-5 2-10 4-16 4z m0-48c-9 0-16 7-16 16 0 9 7 16 16 16 9 0 16-7 16-16 0-9-7-16-16-16z m80 16c-9 0-16 7-16 16 0 9 7 16 16 16 9 0 16-7 16-16 0-9-7-16-16-16z m16 126l0-15-64-13 0 15z"/>
<glyph unicode="&#55;" d="M64 0l384 0 0 512-267 0-117-117z m368 16l-352 0 0 368 112 0 0 112 240 0z m-341 384l85 85 0-85z m86-212l-11-54 54 11 127 127-43 43z m35-29l-26-5 5 26 89 89 21-21z m100 100l-21 21 13 13 21-21z"/>
<glyph unicode="&#56;" d="M64 0l384 0 0 512-267 0-117-117z m368 16l-352 0 0 368 112 0 0 112 240 0z m-341 384l85 85 0-85z m77-112l0-128 176 0 0 128z m160-32c0-9-7-16-16-16-9 0-16 7-16 16 0 9 7 16 16 16 9 0 16-7 16-16z m-44 16c-2-5-4-10-4-16 0-18 14-32 32-32 6 0 11 2 16 4l0-42-48 41-15-15-32 40-49-49 0 69z m-100-91l47 47 32-40 17 17 36-29-132 0z"/>
<glyph unicode="&#57;" d="M448 512l-267 0-117-117 0-395 384 0z m-272-27l0-85-85 0z m256-469l-352 0 0 368 112 0 0 112 240 0z m-184 280l0-64-64 0 0-16 64 0 0-64 16 0 0 64 64 0 0 16-64 0 0 64z"/>
<glyph unicode="&#33;" d="M448 512l-267 0-117-117 0-395 384 0z m-272-27l0-85-85 0z m256-469l-352 0 0 368 112 0 0 112 240 0z m-199 278l-65-64 0-12 65-64 12 12-50 50 141 0 0 16-141 0 50 50z"/>
<glyph unicode="&#34;" d="M64 0l384 0 0 512-267 0-117-117z m368 16l-352 0 0 368 112 0 0 112 240 0z m-341 384l85 85 0-85z m93-176c0-38 31-80 72-80l16 0-14-19 13-10 25 32 0 10-25 32-13-10 14-19-16 0c-32 0-56 34-56 64z m86 45l-14 19 16 0c32 0 56-34 56-64l16 0c0 38-31 80-72 80l-16 0 14 19-13 10-25-32 0-10 25-32z"/>
<glyph unicode="&#35;" d="M448 512l-267 0-117-117 0-395 384 0z m-272-27l0-85-85 0z m256-469l-352 0 0 368 112 0 0 112 240 0z m-238 150l12-12 50 51 50-51 12 12-51 50 51 50-12 12-50-51-50 51-12-12 51-50z"/>
<glyph unicode="&#36;" d="M64 395l0-395 384 0 0 512-267 0z m112 90l0-85-85 0z m256-469l-352 0 0 368 112 0 0 112 240 0z m-256 216c0-31 25-56 56-56 13 0 24 4 33 11l57-57 12 12-57 57c7 9 11 20 11 33 0 31-25 56-56 56-31 0-56-25-56-56z m56 40c22 0 40-18 40-40 0-22-18-40-40-40-22 0-40 18-40 40 0 22 18 40 40 40z"/>
<glyph unicode="&#37;" d="M448 512l-267 0-117-117 0-395 384 0z m-272-27l0-85-85 0z m256-469l-352 0 0 368 112 0 0 112 240 0z m-256 248c-4 0-7-2-8-6-1-3 1-7 4-9l43-28-16-51c-1-3 1-6 3-8 3-2 7-3 9-1l45 29 43-29c1-1 3-1 4-1 2 0 4 1 5 2 3 1 4 5 3 8l-14 51 43 28c3 2 5 6 4 9-1 4-4 6-8 6l-50 0-23 59c-1 3-4 5-7 5-3 0-6-2-8-5l-20-59z m65-11l15 43 17-43c1-3 4-5 7-5l30 0-26-17c-3-2-5-6-4-9l10-35-30 20c-2 1-6 1-8 0l-31-20 11 35c1 3-1 7-4 9l-26 17 32 0c3 0 6 2 7 5z"/>
<glyph unicode="&#38;" d="M448 512l-267 0-117-117 0-395 384 0z m-272-27l0-85-85 0z m256-469l-352 0 0 368 112 0 0 112 240 0z m-246 231l12-12 50 50 0-141 16 0 0 141 50-51 12 13-64 65-12 0z"/>
<glyph unicode="&#39;" d="M179 440l-179 0 0-368 512 0 0 304-269 0z m317-352l-480 0 0 336 157 0 64-64 259 0z m-318 129l56-57 12 0 104 105-12 12-98-98-50 50z"/>
<glyph unicode="&#40;" d="M179 440l-179 0 0-368 512 0 0 304-269 0z m317-352l-480 0 0 336 157 0 64-64 259 0z m-302 143c-17-3-26-21-26-31 0-20 12-32 32-32l112 0c20 0 32 12 32 32 0 10-8 27-24 31-4 28-30 49-64 49-30 0-55-24-62-49z m62 33c23 0 48-14 48-40l0-8 8 0c11 0 16-12 16-16 0-11-5-16-16-16l-112 0c-12 0-16 4-16 16 0 4 5 16 16 16l7 0 1 6c4 20 25 42 48 42z"/>
<glyph unicode="&#41;" d="M179 440l-179 0 0-368 512 0 0 304-269 0z m317-352l-480 0 0 336 157 0 64-64 259 0z m-304 48l128 0 0 176-67 0-61-61z m112 16l-96 0 0 88 56 0 0 56 40 0z m-85 104l29 29 0-29z"/>
<glyph unicode="&#42;" d="M179 440l-179 0 0-368 512 0 0 304-269 0z m317-352l-480 0 0 336 157 0 64-64 259 0z m-298 134l-12-13 64-65 12 0 64 65-12 12-50-50 0 141-16 0 0-141z"/>
<glyph unicode="&#43;" d="M179 440l-179 0 0-368 512 0 0 304-269 0z m317-352l-480 0 0 336 157 0 64-64 259 0z m-272 224l0 16-16 0 0-184 16 0 0 88 126 0-25 40 25 40z m98-64l-98 0 0 48 98 0-16-24z"/>
<glyph unicode="&#44;" d="M179 440l-179 0 0-368 512 0 0 304-269 0z m317-352l-480 0 0 336 157 0 64-64 259 0z m-264 216l0-144-8 0 0 64-48 0 0-64-16 0 0-16 192 0 0 16-16 0 0 88-48 0 0-88-8 0 0 144z m-40-144l0 48 16 0 0-48z m112 72l16 0 0-72-16 0z m-56-72l0 128 16 0 0-128z"/>
<glyph unicode="&#45;" d="M179 440l-179 0 0-368 512 0 0 304-269 0z m317-352l-480 0 0 336 157 0 64-64 259 0z m-328 160c0-57 81-101 84-103l4-2 4 2c3 2 84 46 84 103 0 27-21 48-48 48-17 0-31-9-40-21-9 12-23 21-40 21-27 0-48-21-48-48z m80 0l16 0c0 18 14 32 32 32 19 0 32-13 32-32 0-42-57-78-72-87-15 9-72 45-72 87 0 19 13 32 32 32 18 0 32-14 32-32z"/>
<glyph unicode="&#46;" d="M179 440l-179 0 0-368 512 0 0 304-269 0z m317-352l-480 0 0 336 157 0 64-64 259 0z m-312 144l144 0 0-16-144 0z"/>
<glyph unicode="&#47;" d="M179 440l-179 0 0-368 512 0 0 304-269 0z m317-352l-480 0 0 336 157 0 64-64 259 0z m-320 144l0-16 141 0-51-50 13-12 65 64 0 12-65 64-12-12 50-50z"/>
<glyph unicode="&#58;" d="M179 440l-179 0 0-368 512 0 0 304-269 0z m317-352l-480 0 0 336 157 0 64-64 259 0z m-320 136c0-21 8-41 23-57 16-15 36-23 57-23l0 0c44 0 80 36 80 80 0 21-8 41-23 57-16 15-36 23-57 23-21 0-41-8-57-23-15-16-23-36-23-57z m80-64c-17 0-33 7-45 19-12 12-19 28-19 45 0 14 5 28 13 39l90-89c-11-9-24-14-39-14z m0 128c17 0 33-7 45-19 12-12 19-28 19-45 0-15-5-28-14-39l-89 90c11 8 25 13 39 13z"/>
<glyph unicode="&#59;" d="M179 440l-179 0 0-368 512 0 0 304-269 0z m317-352l-480 0 0 336 157 0 64-64 259 0z m-280 108c-5 2-10 4-16 4-18 0-32-14-32-32 0-18 14-32 32-32 18 0 32 14 32 32l0 81 64 13 0-50c-5 2-10 4-16 4-18 0-32-14-32-32 0-18 14-32 32-32 18 0 32 14 32 32l0 130-96-19z m-16-44c-9 0-16 7-16 16 0 9 7 16 16 16 9 0 16-7 16-16 0-9-7-16-16-16z m80 16c-9 0-16 7-16 16 0 9 7 16 16 16 9 0 16-7 16-16 0-9-7-16-16-16z m16 126l0-15-64-13 0 15z"/>
<glyph unicode="&#60;" d="M179 440l-179 0 0-368 512 0 0 304-269 0z m317-352l-480 0 0 336 157 0 64-64 259 0z m-330 46l54 11 127 127-43 43-127-127z m159 138l-13-13-21 21 13 13z m-134-92l89 89 21-21-89-89-26-5z"/>
<glyph unicode="&#61;" d="M179 440l-179 0 0-368 512 0 0 304-269 0z m317-352l-480 0 0 336 157 0 64-64 259 0z m-328 72l176 0 0 128-176 0z m16 21l47 47 32-40 17 17 36-29-132 0z m128 91c9 0 16-7 16-16 0-9-7-16-16-16-9 0-16 7-16 16 0 9 7 16 16 16z m-28 0c-2-5-4-10-4-16 0-18 14-32 32-32 6 0 11 2 16 4l0-42-48 41-15-15-32 40-49-49 0 69z"/>
<glyph unicode="&#62;" d="M184 232l0-16 64 0 0-64 16 0 0 64 64 0 0 16-64 0 0 64-16 0 0-64z m-5 208l-179 0 0-368 512 0 0 304-269 0z m317-352l-480 0 0 336 157 0 64-64 259 0z"/>
<glyph unicode="&#63;" d="M179 440l-179 0 0-368 512 0 0 304-269 0z m317-352l-480 0 0 336 157 0 64-64 259 0z m-263 206l-65-64 0-12 65-64 12 12-50 50 141 0 0 16-141 0 50 50z"/>
<glyph unicode="&#64;" d="M179 440l-179 0 0-368 512 0 0 304-269 0z m317-352l-480 0 0 336 157 0 64-64 259 0z m-238 91l14-19-16 0c-32 0-56 34-56 64l-16 0c0-38 31-80 72-80l16 0-14-19 13-10 25 32 0 10-25 32z m-26 112l25-32 13 10-14 19 16 0c32 0 56-34 56-64l16 0c0 38-31 80-72 80l-16 0 14 19-13 10-25-32z"/>
<glyph unicode="&#91;" d="M179 440l-179 0 0-368 512 0 0 304-269 0z m317-352l-480 0 0 336 157 0 64-64 259 0z m-290 190l-12-12 51-50-51-50 12-12 50 51 50-51 12 12-51 50 51 50-12 12-50-51z"/>
<glyph unicode="&#93;" d="M179 440l-179 0 0-368 512 0 0 304-269 0z m317-352l-480 0 0 336 157 0 64-64 259 0z m-320 144c0-31 25-56 56-56 13 0 24 4 33 11l57-57 12 12-57 57c7 9 11 20 11 33 0 31-25 56-56 56-31 0-56-25-56-56z m96 0c0-22-18-40-40-40-22 0-40 18-40 40 0 22 18 40 40 40 22 0 40-18 40-40z"/>
<glyph unicode="&#94;" d="M179 440l-179 0 0-368 512 0 0 304-269 0z m317-352l-480 0 0 336 157 0 64-64 259 0z m-320 160c-4 0-7-2-8-6-1-3 1-7 4-9l43-28-16-51c-1-3 1-6 3-8 3-2 7-3 9-1l45 29 43-29c1-1 3-1 5-1 1 0 3 0 4 2 3 1 4 5 3 8l-14 51 43 28c3 2 5 6 4 9-1 4-4 6-8 6l-50 0-23 59c-1 3-4 5-7 5 0 0 0 0 0 0-3 0-6-2-8-5l-20-59z m65-11l15 43 17-43c1-3 4-5 7-5l30 0-26-17c-3-2-5-6-4-9l10-35-30 20c-2 1-6 1-8 0l-31-20 11 35c1 3-1 7-4 9l-26 17 32 0c3 0 6 2 7 5z"/>
<glyph unicode="&#95;" d="M179 440l-179 0 0-368 512 0 0 304-269 0z m317-352l-480 0 0 336 157 0 64-64 259 0z m-298 146l50 51 0-141 16 0 0 141 50-51 12 13-64 65-12 0-64-65z"/>
<glyph unicode="&#96;" d="M246 288l104 105-12 12-98-98-50 51-12-13 56-57z m186 224l-352 0 0-169-80-34 0-309 512 0 0 309-80 34z m-16-16l0-238-160-100-160 100 0 238z m-336-228l-55 35 55 23z m-64-252l0 274 240-151 240 151 0-274z m471 287l-55-35 0 58z"/>
<glyph unicode="&#123;" d="M200 280l112 0c20 0 32 12 32 32 0 10-8 27-24 31-4 28-30 49-64 49-30 0-55-24-62-49-17-3-26-21-26-31 0-20 12-32 32-32z m0 48l7 0 1 6c4 20 25 42 48 42 23 0 48-14 48-40l0-8 8 0c11 0 16-12 16-16 0-11-5-16-16-16l-112 0c-12 0-16 4-16 16 0 4 5 16 16 16z m232 184l-352 0 0-169-80-34 0-309 512 0 0 309-80 34z m-16-16l0-238-160-100-160 100 0 238z m-336-228l-55 35 55 23z m-64-252l0 274 240-151 240 151 0-274z m471 287l-55-35 0 58z"/>
<glyph unicode="&#124;" d="M320 440l-67 0-61-61 0-115 128 0z m-72-27l0-29-29 0z m56-133l-96 0 0 88 56 0 0 56 40 0z m128 232l-352 0 0-169-80-34 0-309 512 0 0 309-80 34z m-16-16l0-238-160-100-160 100 0 238z m-336-228l-55 35 55 23z m-64-252l0 274 240-151 240 151 0-274z m471 287l-55-35 0 58z"/>
<glyph unicode="&#125;" d="M262 256l64 65-12 12-50-50 0 141-16 0 0-141-50 51-12-13 64-65z m170 256l-352 0 0-169-80-34 0-309 512 0 0 309-80 34z m-16-16l0-238-160-100-160 100 0 238z m-336-228l-55 35 55 23z m-64-252l0 274 240-151 240 151 0-274z m471 287l-55-35 0 58z"/>
<glyph unicode="&#126;" d="M432 512l-352 0 0-169-80-34 0-309 512 0 0 309-80 34z m-16-16l0-238-160-100-160 100 0 238z m-336-228l-55 35 55 23z m-64-252l0 274 240-151 240 151 0-274z m471 287l-55-35 0 58z m-263 41l126 0-25 40 25 40-126 0 0 16-16 0 0-184 16 0z m98 64l-16-24 16-24-98 0 0 48z"/>
<glyph unicode="&#92;" d="M432 512l-352 0 0-169-80-34 0-309 512 0 0 309-80 34z m-16-16l0-238-160-100-160 100 0 238z m-336-228l-55 35 55 23z m-64-252l0 274 240-151 240 151 0-274z m471 287l-55-35 0 58z m-235-46l4-2 4 2c3 2 84 46 84 103 0 27-21 48-48 48-17 0-31-9-40-21-9 12-23 21-40 21-27 0-48-21-48-48 0-57 81-101 84-103z m-36 135c18 0 32-14 32-32l16 0c0 18 14 32 32 32 19 0 32-13 32-32 0-42-57-78-72-87-15 9-72 45-72 87 0 19 13 32 32 32z"/>
<glyph unicode="&#57344;" d="M266 278l13-12 65 64 0 12-65 64-12-12 50-50-141 0 0-16 141 0z m166 234l-352 0 0-169-80-34 0-309 512 0 0 309-80 34z m-16-16l0-238-160-100-160 100 0 238z m-336-228l-55 35 55 23z m-64-252l0 274 240-151 240 151 0-274z m471 287l-55-35 0 58z"/>
<glyph unicode="&#57345;" d="M256 256l0 0c44 0 80 36 80 80 0 21-8 41-23 57-16 15-36 23-57 23-21 0-41-8-57-23-15-16-23-36-23-57 0-21 8-41 23-57 16-15 36-23 57-23z m0 144c17 0 33-7 45-19 12-12 19-28 19-45 0-15-5-28-14-39l-89 90c11 8 25 13 39 13z m-51-25l90-89c-11-9-24-14-39-14-17 0-33 7-45 19-12 12-19 28-19 45 0 14 5 28 13 39z m227 137l-352 0 0-169-80-34 0-309 512 0 0 309-80 34z m-16-16l0-238-160-100-160 100 0 238z m-336-228l-55 35 55 23z m-64-252l0 274 240-151 240 151 0-274z m471 287l-55-35 0 58z"/>
<glyph unicode="&#57346;" d="M200 248c18 0 32 14 32 32l0 81 64 13 0-50c-5 2-10 4-16 4-18 0-32-14-32-32 0-18 14-32 32-32 18 0 32 14 32 32l0 130-96-19 0-99c-5 2-10 4-16 4-18 0-32-14-32-32 0-18 14-32 32-32z m80 32c-9 0-16 7-16 16 0 9 7 16 16 16 9 0 16-7 16-16 0-9-7-16-16-16z m16 126l0-15-64-13 0 15z m-96-110c9 0 16-7 16-16 0-9-7-16-16-16-9 0-16 7-16 16 0 9 7 16 16 16z m232 216l-352 0 0-169-80-34 0-309 512 0 0 309-80 34z m-16-16l0-238-160-100-160 100 0 238z m-336-228l-55 35 55 23z m-64-252l0 274 240-151 240 151 0-274z m471 287l-55-35 0 58z"/>
<glyph unicode="&#57347;" d="M347 384l-43 43-127-127-11-54 54 11z m-22 0l-13-13-21 21 13 13z m-139-118l5 26 89 89 21-21-89-89z m246 246l-352 0 0-169-80-34 0-309 512 0 0 309-80 34z m-16-16l0-238-160-100-160 100 0 238z m-336-228l-55 35 55 23z m-64-252l0 274 240-151 240 151 0-274z m471 287l-55-35 0 58z"/>
<glyph unicode="&#57348;" d="M344 400l-176 0 0-128 176 0z m-32-16c9 0 16-7 16-16 0-9-7-16-16-16-9 0-16 7-16 16 0 9 7 16 16 16z m-28 0c-2-5-4-10-4-16 0-18 14-32 32-32 6 0 11 2 16 4l0-42-48 41-15-15-32 40-49-49 0 69z m-100-91l47 47 32-40 17 17 36-29-132 0z m248 50l0 169-352 0 0-169-80-34 0-309 512 0 0 309z m55-40l-55-35 0 58z m-71 193l0-238-160-100-160 100 0 238z m-336-228l-55 35 55 23z m-64-252l0 274 240-151 240 151 0-274z"/>
<glyph unicode="&#57349;" d="M246 278l-51 50 141 0 0 16-141 0 51 50-13 12-65-64 0-12 65-64z m186 234l-352 0 0-169-80-34 0-309 512 0 0 309-80 34z m-16-16l0-238-160-100-160 100 0 238z m-336-228l-55 35 55 23z m-64-252l0 274 240-151 240 151 0-274z m471 287l-55-35 0 58z"/>
<glyph unicode="&#57350;" d="M256 256l16 0-14-19 13-10 25 32 0 10-25 32-13-10 14-19-16 0c-32 0-56 34-56 64l-16 0c0-38 31-80 72-80z m14 125l-14 19 16 0c32 0 56-34 56-64l16 0c0 38-31 80-72 80l-16 0 14 19-13 10-25-32 0-10 25-32z m162 131l-352 0 0-169-80-34 0-309 512 0 0 309-80 34z m-16-16l0-238-160-100-160 100 0 238z m-336-228l-55 35 55 23z m-64-252l0 274 240-151 240 151 0-274z m471 287l-55-35 0 58z"/>
<glyph unicode="&#57351;" d="M206 274l50 51 50-51 12 12-51 50 51 50-12 12-50-51-50 51-12-12 51-50-51-50z m226 238l-352 0 0-169-80-34 0-309 512 0 0 309-80 34z m-16-16l0-238-160-100-160 100 0 238z m-336-228l-55 35 55 23z m-64-252l0 274 240-151 240 151 0-274z m471 287l-55-35 0 58z"/>
<glyph unicode="&#57352;" d="M232 304c13 0 24 4 33 11l57-57 12 12-57 57c7 9 11 20 11 33 0 31-25 56-56 56-31 0-56-25-56-56 0-31 25-56 56-56z m0 96c22 0 40-18 40-40 0-22-18-40-40-40-22 0-40 18-40 40 0 22 18 40 40 40z m200 112l-352 0 0-169-80-34 0-309 512 0 0 309-80 34z m-16-16l0-238-160-100-160 100 0 238z m-336-228l-55 35 55 23z m-64-252l0 274 240-151 240 151 0-274z m471 287l-55-35 0 58z"/>
<glyph unicode="&#57353;" d="M432 512l-352 0 0-169-80-34 0-309 512 0 0 309-80 34z m-16-16l0-238-160-100-160 100 0 238z m-336-228l-55 35 55 23z m-64-252l0 274 240-151 240 151 0-274z m471 287l-55-35 0 58z m-315 42l43-28-16-51c-1-3 1-6 3-8 3-2 7-3 9-1l45 29 43-29c1-1 3-1 4-1 2 0 4 1 5 2 3 1 4 5 3 8l-14 51 43 28c3 2 5 6 4 9-1 4-4 6-8 6l-50 0-23 59c-1 3-4 5-7 5-3 0-6-2-8-5l-20-59-52 0c-4 0-7-2-8-6-1-3 1-7 4-9z m62-1c3 0 6 2 7 5l15 43 17-43c1-3 4-5 7-5l30 0-26-17c-3-2-5-6-4-9l10-35-30 20c-2 1-6 1-8 0l-31-20 11 35c1 3-1 7-4 9l-26 17z"/>
<glyph unicode="&#57354;" d="M248 397l0-141 16 0 0 141 50-51 12 13-64 65-12 0-64-65 12-12z m184 115l-352 0 0-169-80-34 0-309 512 0 0 309-80 34z m-16-16l0-238-160-100-160 100 0 238z m-336-228l-55 35 55 23z m-64-252l0 274 240-151 240 151 0-274z m471 287l-55-35 0 58z"/>
<glyph unicode="&#57355;" d="M0 128l136 0 0-105 123 105 253 0 0 352-512 0z m16 336l480 0 0-320-243 0-101-87 0 87-136 0z m230-224l104 105-12 12-98-98-50 51-12-13 56-57z"/>
<glyph unicode="&#57356;" d="M0 128l136 0 0-105 123 105 253 0 0 352-512 0z m16 336l480 0 0-320-243 0-101-87 0 87-136 0z m216-152l48 0 0-16-48 0z m80 0l48 0 0-16-48 0z m-160 0l48 0 0-16-48 0z"/>
<glyph unicode="&#57357;" d="M256 200c40 0 72 32 72 72l-16 0c0-31-25-56-56-56-31 0-56 25-56 56l-16 0c0-40 32-72 72-72z m-112 160l16 0 0-16-16 0z m208 0l16 0 0-16-16 0z m-352-232l136 0 0-105 123 105 253 0 0 352-512 0z m16 336l480 0 0-320-243 0-101-87 0 87-136 0z"/>
<glyph unicode="&#57358;" d="M0 128l136 0 0-105 123 105 253 0 0 352-512 0z m16 336l480 0 0-320-243 0-101-87 0 87-136 0z m236-239l4-2 4 2c3 2 84 46 84 103 0 27-21 48-48 48-17 0-31-9-40-21-9 12-23 21-40 21-27 0-48-21-48-48 0-57 81-101 84-103z m-36 135c18 0 32-14 32-32l16 0c0 18 14 32 32 32 19 0 32-13 32-32 0-42-57-78-72-87-15 9-72 45-72 87 0 19 13 32 32 32z"/>
<glyph unicode="&#57359;" d="M184 312l144 0 0-16-144 0z m-184-184l136 0 0-105 123 105 253 0 0 352-512 0z m16 336l480 0 0-320-243 0-101-87 0 87-136 0z"/>
<glyph unicode="&#57360;" d="M0 480l0-352 136 0 0-105 123 105 253 0 0 352z m496-336l-243 0-101-87 0 87-136 0 0 320 480 0z m-296 72c18 0 32 14 32 32l0 81 64 13 0-50c-5 2-10 4-16 4-18 0-32-14-32-32 0-18 14-32 32-32 18 0 32 14 32 32l0 130-96-19 0-99c-5 2-10 4-16 4-18 0-32-14-32-32 0-18 14-32 32-32z m80 32c-9 0-16 7-16 16 0 9 7 16 16 16 9 0 16-7 16-16 0-9-7-16-16-16z m16 126l0-15-64-13 0 15z m-96-110c9 0 16-7 16-16 0-9-7-16-16-16-9 0-16 7-16 16 0 9 7 16 16 16z"/>
<glyph unicode="&#57361;" d="M248 232l16 0 0 64 64 0 0 16-64 0 0 64-16 0 0-64-64 0 0-16 64 0z m-248-104l136 0 0-105 123 105 253 0 0 352-512 0z m16 336l480 0 0-320-243 0-101-87 0 87-136 0z"/>
<glyph unicode="&#57362;" d="M0 128l136 0 0-105 123 105 253 0 0 352-512 0z m16 336l480 0 0-320-243 0-101-87 0 87-136 0z m240-240l16 0-14-19 13-10 25 32 0 10-25 32-13-10 14-19-16 0c-32 0-56 34-56 64l-16 0c0-38 31-80 72-80z m14 125l-14 19 16 0c32 0 56-34 56-64l16 0c0 38-31 80-72 80l-16 0 14 19-13 10-25-32 0-10 25-32z"/>
<glyph unicode="&#57363;" d="M0 128l136 0 0-105 123 105 253 0 0 352-512 0z m16 336l480 0 0-320-243 0-101-87 0 87-136 0z m190-222l50 51 50-51 12 12-51 50 51 50-12 12-50-51-50 51-12-12 51-50-51-50z"/>
<glyph unicode="&#57364;" d="M144 360l16 0 0-16-16 0z m208 0l16 0 0-16-16 0z m-352-232l136 0 0-105 123 105 253 0 0 352-512 0z m16 336l480 0 0-320-243 0-101-87 0 87-136 0z m240-200c31 0 56-25 56-56l16 0c0 40-32 72-72 72-40 0-72-32-72-72l16 0c0 31 25 56 56 56z"/>
<glyph unicode="&#57365;" d="M392 512l-272 0 0-512 272 0z m-16-16l0-48-240 0 0 48z m0-64l0-320-240 0 0 320z m-240-416l0 80 240 0 0-80z m88 464l64 0 0-16-64 0z m32-400c-13 0-24-11-24-24 0-13 11-24 24-24 13 0 24 11 24 24 0 13-11 24-24 24z m0-32c-4 0-8 4-8 8 0 4 4 8 8 8 4 0 8-4 8-8 0-4-4-8-8-8z m-56 168l112 0c20 0 32 12 32 32 0 10-8 27-24 31-4 28-30 49-64 49-30 0-55-24-62-49-17-3-26-21-26-31 0-20 12-32 32-32z m0 48l7 0 1 6c4 20 25 42 48 42 23 0 48-14 48-40l0-8 8 0c11 0 16-12 16-16 0-11-5-16-16-16l-112 0c-12 0-16 4-16 16 0 4 5 16 16 16z"/>
<glyph unicode="&#57366;" d="M392 512l-272 0 0-512 272 0z m-16-16l0-48-240 0 0 48z m0-64l0-320-240 0 0 320z m-240-416l0 80 240 0 0-80z m88 464l64 0 0-16-64 0z m32-400c-13 0-24-11-24-24 0-13 11-24 24-24 13 0 24 11 24 24 0 13-11 24-24 24z m0-32c-4 0-8 4-8 8 0 4 4 8 8 8 4 0 8-4 8-8 0-4-4-8-8-8z m-4 145l4-2 4 2c3 2 84 46 84 103 0 27-21 48-48 48-17 0-31-9-40-21-9 12-23 21-40 21-27 0-48-21-48-48 0-57 81-101 84-103z m-36 135c18 0 32-14 32-32l16 0c0 18 14 32 32 32 19 0 32-13 32-32 0-42-57-78-72-87-15 9-72 45-72 87 0 19 13 32 32 32z"/>
<glyph unicode="&#57367;" d="M392 512l-272 0 0-512 272 0z m-16-16l0-48-240 0 0 48z m0-64l0-320-240 0 0 320z m-240-416l0 80 240 0 0-80z m88 464l64 0 0-16-64 0z m32-400c-13 0-24-11-24-24 0-13 11-24 24-24 13 0 24 11 24 24 0 13-11 24-24 24z m0-32c-4 0-8 4-8 8 0 4 4 8 8 8 4 0 8-4 8-8 0-4-4-8-8-8z m-57 167c16-15 36-23 57-23l0 0c44 0 80 36 80 80 0 21-8 41-23 57-16 15-36 23-57 23-21 0-41-8-57-23-15-16-23-36-23-57 0-21 8-41 23-57z m57 121c17 0 33-7 45-19 12-12 19-28 19-45 0-15-5-28-14-39l-89 90c11 8 25 13 39 13z m-51-25l90-89c-11-9-24-14-39-14-17 0-33 7-45 19-12 12-19 28-19 45 0 14 5 28 13 39z"/>
<glyph unicode="&#57368;" d="M392 512l-272 0 0-512 272 0z m-16-16l0-48-240 0 0 48z m0-64l0-320-240 0 0 320z m-240-416l0 80 240 0 0-80z m88 464l64 0 0-16-64 0z m32-400c-13 0-24-11-24-24 0-13 11-24 24-24 13 0 24 11 24 24 0 13-11 24-24 24z m0-32c-4 0-8 4-8 8 0 4 4 8 8 8 4 0 8-4 8-8 0-4-4-8-8-8z m-56 136c18 0 32 14 32 32l0 81 64 13 0-50c-5 2-10 4-16 4-18 0-32-14-32-32 0-18 14-32 32-32 18 0 32 14 32 32l0 130-96-19 0-99c-5 2-10 4-16 4-18 0-32-14-32-32 0-18 14-32 32-32z m80 32c-9 0-16 7-16 16 0 9 7 16 16 16 9 0 16-7 16-16 0-9-7-16-16-16z m16 126l0-15-64-13 0 15z m-96-110c9 0 16-7 16-16 0-9-7-16-16-16-9 0-16 7-16 16 0 9 7 16 16 16z"/>
<glyph unicode="&#57369;" d="M392 512l-272 0 0-512 272 0z m-16-16l0-48-240 0 0 48z m0-64l0-320-240 0 0 320z m-240-416l0 80 240 0 0-80z m88 464l64 0 0-16-64 0z m32-400c-13 0-24-11-24-24 0-13 11-24 24-24 13 0 24 11 24 24 0 13-11 24-24 24z m0-32c-4 0-8 4-8 8 0 4 4 8 8 8 4 0 8-4 8-8 0-4-4-8-8-8z m-36 145l127 127-43 43-127-127-11-54z m105 127l-13-13-21 21 13 13z m-134-92l89 89 21-21-89-89-26-5z"/>
<glyph unicode="&#57370;" d="M392 512l-272 0 0-512 272 0z m-16-16l0-48-240 0 0 48z m0-64l0-320-240 0 0 320z m-240-416l0 80 240 0 0-80z m88 464l64 0 0-16-64 0z m32-400c-13 0-24-11-24-24 0-13 11-24 24-24 13 0 24 11 24 24 0 13-11 24-24 24z m0-32c-4 0-8 4-8 8 0 4 4 8 8 8 4 0 8-4 8-8 0-4-4-8-8-8z m88 160l0 128-176 0 0-128z m-160 21l47 47 32-40 17 17 36-29-132 0z m128 91c9 0 16-7 16-16 0-9-7-16-16-16-9 0-16 7-16 16 0 9 7 16 16 16z m-28 0c-2-5-4-10-4-16 0-18 14-32 32-32 6 0 11 2 16 4l0-42-48 41-15-15-32 40-49-49 0 69z"/>
<glyph unicode="&#57371;" d="M392 512l-272 0 0-512 272 0z m-16-16l0-48-240 0 0 48z m0-64l0-320-240 0 0 320z m-240-416l0 80 240 0 0-80z m88 464l64 0 0-16-64 0z m32-400c-13 0-24-11-24-24 0-13 11-24 24-24 13 0 24 11 24 24 0 13-11 24-24 24z m0-32c-4 0-8 4-8 8 0 4 4 8 8 8 4 0 8-4 8-8 0-4-4-8-8-8z m0 144l16 0-14-19 13-10 25 32 0 10-25 32-13-10 14-19-16 0c-32 0-56 34-56 64l-16 0c0-38 31-80 72-80z m14 125l-14 19 16 0c32 0 56-34 56-64l16 0c0 38-31 80-72 80l-16 0 14 19-13 10-25-32 0-10 25-32z"/>
<glyph unicode="&#57372;" d="M392 512l-272 0 0-512 272 0z m-16-16l0-48-240 0 0 48z m0-64l0-320-240 0 0 320z m-240-416l0 80 240 0 0-80z m88 464l64 0 0-16-64 0z m32-400c-13 0-24-11-24-24 0-13 11-24 24-24 13 0 24 11 24 24 0 13-11 24-24 24z m0-32c-4 0-8 4-8 8 0 4 4 8 8 8 4 0 8-4 8-8 0-4-4-8-8-8z m-24 192c13 0 24 4 33 11l57-57 12 12-57 57c7 9 11 20 11 33 0 31-25 56-56 56-31 0-56-25-56-56 0-31 25-56 56-56z m0 96c22 0 40-18 40-40 0-22-18-40-40-40-22 0-40 18-40 40 0 22 18 40 40 40z"/>
<glyph unicode="&#57373;" d="M200 216l112 0c20 0 32 12 32 32 0 10-8 27-24 31-4 28-30 49-64 49-30 0-55-24-62-49-17-3-26-21-26-31 0-20 12-32 32-32z m0 48l7 0 1 6c4 20 25 42 48 42 23 0 48-14 48-40l0-8 8 0c11 0 16-12 16-16 0-11-5-16-16-16l-112 0c-12 0-16 4-16 16 0 4 5 16 16 16z m232 248l-352 0 0-512 352 0z m-16-16l0-48-320 0 0 48z m0-64l0-320-320 0 0 320z m-320-416l0 80 320 0 0-80z m128 464l64 0 0-16-64 0z m32-400c-13 0-24-11-24-24 0-13 11-24 24-24 13 0 24 11 24 24 0 13-11 24-24 24z m0-32c-4 0-8 4-8 8 0 4 4 8 8 8 4 0 8-4 8-8 0-4-4-8-8-8z"/>
<glyph unicode="&#57374;" d="M432 512l-352 0 0-512 352 0z m-16-16l0-48-320 0 0 48z m0-64l0-320-320 0 0 320z m-320-416l0 80 320 0 0-80z m156 177l4-2 4 2c3 2 84 46 84 103 0 27-21 48-48 48-17 0-31-9-40-21-9 12-23 21-40 21-27 0-48-21-48-48 0-57 81-101 84-103z m-36 135c18 0 32-14 32-32l16 0c0 18 14 32 32 32 19 0 32-13 32-32 0-42-57-78-72-87-15 9-72 45-72 87 0 19 13 32 32 32z m8 152l64 0 0-16-64 0z m32-400c-13 0-24-11-24-24 0-13 11-24 24-24 13 0 24 11 24 24 0 13-11 24-24 24z m0-32c-4 0-8 4-8 8 0 4 4 8 8 8 4 0 8-4 8-8 0-4-4-8-8-8z"/>
<glyph unicode="&#57375;" d="M199 215c16-15 36-23 57-23l0 0c44 0 80 36 80 80 0 21-8 41-23 57-16 15-36 23-57 23-21 0-41-8-57-23-15-16-23-36-23-57 0-21 8-41 23-57z m57 121c17 0 33-7 45-19 12-12 19-28 19-45 0-15-5-28-14-39l-89 90c11 8 25 13 39 13z m-51-25l90-89c-11-9-24-14-39-14-17 0-33 7-45 19-12 12-19 28-19 45 0 14 5 28 13 39z m227 201l-352 0 0-512 352 0z m-16-16l0-48-320 0 0 48z m0-64l0-320-320 0 0 320z m-320-416l0 80 320 0 0-80z m128 464l64 0 0-16-64 0z m32-400c-13 0-24-11-24-24 0-13 11-24 24-24 13 0 24 11 24 24 0 13-11 24-24 24z m0-32c-4 0-8 4-8 8 0 4 4 8 8 8 4 0 8-4 8-8 0-4-4-8-8-8z"/>
<glyph unicode="&#57376;" d="M200 184c18 0 32 14 32 32l0 81 64 13 0-50c-5 2-10 4-16 4-18 0-32-14-32-32 0-18 14-32 32-32 18 0 32 14 32 32l0 130-96-19 0-99c-5 2-10 4-16 4-18 0-32-14-32-32 0-18 14-32 32-32z m80 32c-9 0-16 7-16 16 0 9 7 16 16 16 9 0 16-7 16-16 0-9-7-16-16-16z m16 126l0-15-64-13 0 15z m-96-110c9 0 16-7 16-16 0-9-7-16-16-16-9 0-16 7-16 16 0 9 7 16 16 16z m232 280l-352 0 0-512 352 0z m-16-16l0-48-320 0 0 48z m0-64l0-320-320 0 0 320z m-320-416l0 80 320 0 0-80z m128 464l64 0 0-16-64 0z m32-400c-13 0-24-11-24-24 0-13 11-24 24-24 13 0 24 11 24 24 0 13-11 24-24 24z m0-32c-4 0-8 4-8 8 0 4 4 8 8 8 4 0 8-4 8-8 0-4-4-8-8-8z"/>
<glyph unicode="&#57377;" d="M220 193l127 127-43 43-127-127-11-54z m105 127l-13-13-21 21 13 13z m-134-92l89 89 21-21-89-89-26-5z m241 284l-352 0 0-512 352 0z m-16-16l0-48-320 0 0 48z m0-64l0-320-320 0 0 320z m-320-416l0 80 320 0 0-80z m128 464l64 0 0-16-64 0z m32-400c-13 0-24-11-24-24 0-13 11-24 24-24 13 0 24 11 24 24 0 13-11 24-24 24z m0-32c-4 0-8 4-8 8 0 4 4 8 8 8 4 0 8-4 8-8 0-4-4-8-8-8z"/>
<glyph unicode="&#57378;" d="M344 208l0 128-176 0 0-128z m-160 21l47 47 32-40 17 17 36-29-132 0z m128 91c9 0 16-7 16-16 0-9-7-16-16-16-9 0-16 7-16 16 0 9 7 16 16 16z m-28 0c-2-5-4-10-4-16 0-18 14-32 32-32 6 0 11 2 16 4l0-42-48 41-15-15-32 40-49-49 0 69z m148 192l-352 0 0-512 352 0z m-16-16l0-48-320 0 0 48z m0-64l0-320-320 0 0 320z m-320-416l0 80 320 0 0-80z m128 464l64 0 0-16-64 0z m32-400c-13 0-24-11-24-24 0-13 11-24 24-24 13 0 24 11 24 24 0 13-11 24-24 24z m0-32c-4 0-8 4-8 8 0 4 4 8 8 8 4 0 8-4 8-8 0-4-4-8-8-8z"/>
<glyph unicode="&#57379;" d="M256 192l16 0-14-19 13-10 25 32 0 10-25 32-13-10 14-19-16 0c-32 0-56 34-56 64l-16 0c0-38 31-80 72-80z m14 125l-14 19 16 0c32 0 56-34 56-64l16 0c0 38-31 80-72 80l-16 0 14 19-13 10-25-32 0-10 25-32z m162 195l-352 0 0-512 352 0z m-16-16l0-48-320 0 0 48z m0-64l0-320-320 0 0 320z m-320-416l0 80 320 0 0-80z m128 464l64 0 0-16-64 0z m32-400c-13 0-24-11-24-24 0-13 11-24 24-24 13 0 24 11 24 24 0 13-11 24-24 24z m0-32c-4 0-8 4-8 8 0 4 4 8 8 8 4 0 8-4 8-8 0-4-4-8-8-8z"/>
<glyph unicode="&#57380;" d="M232 240c13 0 24 4 33 11l57-57 12 12-57 57c7 9 11 20 11 33 0 31-25 56-56 56-31 0-56-25-56-56 0-31 25-56 56-56z m0 96c22 0 40-18 40-40 0-22-18-40-40-40-22 0-40 18-40 40 0 22 18 40 40 40z m200 176l-352 0 0-512 352 0z m-16-16l0-48-320 0 0 48z m0-64l0-320-320 0 0 320z m-320-416l0 80 320 0 0-80z m128 464l64 0 0-16-64 0z m32-400c-13 0-24-11-24-24 0-13 11-24 24-24 13 0 24 11 24 24 0 13-11 24-24 24z m0-32c-4 0-8 4-8 8 0 4 4 8 8 8 4 0 8-4 8-8 0-4-4-8-8-8z"/>
<glyph unicode="&#57381;" d="M326 480l-30 0 0 32-80 0 0-32-30 0-6-24-108 0 0-456 368 0 0 456-108 0z m-128-16l34 0 0 32 48 0 0-32 34 0 12-48-140 0z m148-64l46 0 0-352-272 0 0 352z m78 40l0-424-336 0 0 424 88 0-6-24-66 0 0-384 304 0 0 384-66 0-6 24z"/>
<glyph unicode="&#57382;" d="M240 195l-50 51-12-13 56-57 12 0 104 105-12 12z m86 285l-30 0 0 32-80 0 0-32-30 0-6-24-108 0 0-456 368 0 0 456-108 0z m-128-16l34 0 0 32 48 0 0-32 34 0 12-48-140 0z m226-24l0-424-336 0 0 424 88 0-10-40 180 0-10 40z"/>
<glyph unicode="&#57383;" d="M320 231c-4 28-30 49-64 49-30 0-55-24-62-49-17-3-26-21-26-31 0-20 12-32 32-32l112 0c20 0 32 12 32 32 0 10-8 27-24 31z m-8-47l-112 0c-12 0-16 4-16 16 0 4 5 16 16 16l7 0 1 6c4 20 25 42 48 42 23 0 48-14 48-40l0-8 8 0c11 0 16-12 16-16 0-11-5-16-16-16z m14 296l-30 0 0 32-80 0 0-32-30 0-6-24-108 0 0-456 368 0 0 456-108 0z m-128-16l34 0 0 32 48 0 0-32 34 0 12-48-140 0z m226-24l0-424-336 0 0 424 88 0-10-40 180 0-10 40z"/>
<glyph unicode="&#57384;" d="M264 171l0 141-16 0 0-141-50 51-12-13 64-65 12 0 64 65-12 12z m62 309l-30 0 0 32-80 0 0-32-30 0-6-24-108 0 0-456 368 0 0 456-108 0z m-128-16l34 0 0 32 48 0 0-32 34 0 12-48-140 0z m226-24l0-424-336 0 0 424 88 0-10-40 180 0-10 40z"/>
<glyph unicode="&#57385;" d="M326 480l-30 0 0 32-80 0 0-32-30 0-6-24-108 0 0-456 368 0 0 456-108 0z m-128-16l34 0 0 32 48 0 0-32 34 0 12-48-140 0z m226-24l0-424-336 0 0 424 88 0-10-40 180 0-10 40z m-200-128l0 16-16 0 0-184 16 0 0 88 126 0-25 40 25 40z m98-64l-98 0 0 48 98 0-16-24z"/>
<glyph unicode="&#57386;" d="M184 232l144 0 0-16-144 0z m142 248l-30 0 0 32-80 0 0-32-30 0-6-24-108 0 0-456 368 0 0 456-108 0z m-128-16l34 0 0 32 48 0 0-32 34 0 12-48-140 0z m226-24l0-424-336 0 0 424 88 0-10-40 180 0-10 40z"/>
<glyph unicode="&#57387;" d="M256 304c-21 0-41-8-57-23-15-16-23-36-23-57 0-21 8-41 23-57 16-15 36-23 57-23l0 0c44 0 80 36 80 80 0 21-8 41-23 57-16 15-36 23-57 23z m0-144c-17 0-33 7-45 19-12 12-19 28-19 45 0 14 5 28 13 39l90-89c-11-9-24-14-39-14z m50 25l-89 90c11 8 25 13 39 13 17 0 33-7 45-19 12-12 19-28 19-45 0-15-5-28-14-39z m20 295l-30 0 0 32-80 0 0-32-30 0-6-24-108 0 0-456 368 0 0 456-108 0z m-128-16l34 0 0 32 48 0 0-32 34 0 12-48-140 0z m226-24l0-424-336 0 0 424 88 0-10-40 180 0-10 40z"/>
<glyph unicode="&#57388;" d="M177 188l-11-54 54 11 127 127-43 43z m35-29l-26-5 5 26 89 89 21-21z m100 100l-21 21 13 13 21-21z m14 221l-30 0 0 32-80 0 0-32-30 0-6-24-108 0 0-456 368 0 0 456-108 0z m-128-16l34 0 0 32 48 0 0-32 34 0 12-48-140 0z m226-24l0-424-336 0 0 424 88 0-10-40 180 0-10 40z"/>
<glyph unicode="&#57389;" d="M264 296l-16 0 0-64-64 0 0-16 64 0 0-64 16 0 0 64 64 0 0 16-64 0z m62 184l-30 0 0 32-80 0 0-32-30 0-6-24-108 0 0-456 368 0 0 456-108 0z m-128-16l34 0 0 32 48 0 0-32 34 0 12-48-140 0z m226-24l0-424-336 0 0 424 88 0-10-40 180 0-10 40z"/>
<glyph unicode="&#57390;" d="M258 179l14-19-16 0c-32 0-56 34-56 64l-16 0c0-38 31-80 72-80l16 0-14-19 13-10 25 32 0 10-25 32z m14 125l-16 0 14 19-13 10-25-32 0-10 25-32 13 10-14 19 16 0c32 0 56-34 56-64l16 0c0 38-31 80-72 80z m54 176l-30 0 0 32-80 0 0-32-30 0-6-24-108 0 0-456 368 0 0 456-108 0z m-128-16l34 0 0 32 48 0 0-32 34 0 12-48-140 0z m226-24l0-424-336 0 0 424 88 0-10-40 180 0-10 40z"/>
<glyph unicode="&#57391;" d="M306 286l-50-51-50 51-12-12 51-50-51-50 12-12 50 51 50-51 12 12-51 50 51 50z m20 194l-30 0 0 32-80 0 0-32-30 0-6-24-108 0 0-456 368 0 0 456-108 0z m-128-16l34 0 0 32 48 0 0-32 34 0 12-48-140 0z m226-24l0-424-336 0 0 424 88 0-10-40 180 0-10 40z"/>
<glyph unicode="&#57392;" d="M288 248c0 31-25 56-56 56-31 0-56-25-56-56 0-31 25-56 56-56 13 0 24 4 33 11l57-57 12 12-57 57c7 9 11 20 11 33z m-96 0c0 22 18 40 40 40 22 0 40-18 40-40 0-22-18-40-40-40-22 0-40 18-40 40z m134 232l-30 0 0 32-80 0 0-32-30 0-6-24-108 0 0-456 368 0 0 456-108 0z m-128-16l34 0 0 32 48 0 0-32 34 0 12-48-140 0z m226-24l0-424-336 0 0 424 88 0-10-40 180 0-10 40z"/>
<glyph unicode="&#57393;" d="M326 480l-30 0 0 32-80 0 0-32-30 0-6-24-108 0 0-456 368 0 0 456-108 0z m-128-16l34 0 0 32 48 0 0-32 34 0 12-48-140 0z m226-24l0-424-336 0 0 424 88 0-10-40 180 0-10 40z m-88-192l-50 0-23 59c-1 3-4 5-7 5-3 0-6-2-8-5l-20-59-52 0c-4 0-7-2-8-6-1-3 1-7 4-9l43-28-16-51c-1-3 1-6 3-8 3-2 7-3 9-1l45 29 43-29c1-1 3-1 5-1 1 0 3 0 4 2 3 1 4 5 3 8l-14 51 43 28c3 2 5 6 4 9-1 4-4 6-8 6z m-52-33c-3-2-5-6-4-9l10-35-30 20c-2 1-6 1-8 0l-31-20 11 35c1 3-1 7-4 9l-26 17 32 0c3 0 6 2 7 5l15 43 17-43c1-3 4-5 7-5l30 0z"/>
<glyph unicode="&#57394;" d="M250 312l-64-65 12-12 50 50 0-141 16 0 0 141 50-51 12 13-64 65z m76 168l-30 0 0 32-80 0 0-32-30 0-6-24-108 0 0-456 368 0 0 456-108 0z m-128-16l34 0 0 32 48 0 0-32 34 0 12-48-140 0z m226-24l0-424-336 0 0 424 88 0-10-40 180 0-10 40z"/>
</font>
</defs>
</svg>
